cue/bin image support.

Discussions related to using VirtualBox on Windows hosts.

cue/bin image support.

Postby AnrDaemon » 25. Jul 2018, 07:19

The latest VirtualBox claims CUE/BIN support for disk images, but…
https://prnt.sc/kalbm1

Anything I'm missing?
The same image is easily loaded by other CD emulators.
AnrDaemon
 
Posts: 109
Joined: 7. Feb 2010, 23:41
Primary OS: MS Windows 7
VBox Version: PUEL
Guest OSses: Ubuntu Linux, Windows

Re: cue/bin image support.

Postby socratis » 28. Jul 2018, 01:21

First of all, please edit your message and attach the image here. Or, even better, you see that "Copy" button. Well copy and paste the error directly. Much simpler and people don't go to 3rd party sites.

And what you're missing is to provide the CUE file here so that a developer can have a look at it.
If you obfuscate any information requested, I will obfuscate my response. These are virtual UUIDs, not real ones.
Do NOT reply with the "QUOTE" button, please use the "POST REPLY", at the bottom of the form.
socratis
Site Moderator
 
Posts: 25830
Joined: 22. Oct 2010, 11:03
Location: Greece
Primary OS: Mac OS X other
VBox Version: PUEL
Guest OSses: Win(*>98), Linux*, OSX>10.5

Re: cue/bin image support.

Postby AnrDaemon » 6. Sep 2019, 22:27

Dungeon_Keeper_Gold.cue
Code: Select all   Expand viewCollapse view
FILE "Dungeon_Keeper_Gold.bin" BINARY
REM SESSION 01
   TRACK 01 MODE1/2352
      INDEX 01 00:00:00
   TRACK 02 AUDIO
      INDEX 01 39:08:07
   TRACK 03 AUDIO
      INDEX 01 43:27:68
   TRACK 04 AUDIO
      INDEX 01 48:54:61
   TRACK 05 AUDIO
      INDEX 01 54:02:19
   TRACK 06 AUDIO
      INDEX 01 59:03:03
   TRACK 07 AUDIO
      INDEX 01 63:49:43
AnrDaemon
 
Posts: 109
Joined: 7. Feb 2010, 23:41
Primary OS: MS Windows 7
VBox Version: PUEL
Guest OSses: Ubuntu Linux, Windows


Return to VirtualBox on Windows Hosts

Who is online

Users browsing this forum: No registered users and 31 guests